Page 1 of 1

Burinig the cue

Posted: Wed Sep 17, 2008 2:15 am
by miketrav
Hey guys. This is kind of a general question that applies to burning games

I have been downloading games from variois rom sites and extracting the iso and mp3 files, converting the mp3 to wavs, and changing the cue to wav.

I then attempt to bun the cue image. Every time I do It never works and i get a invalid cue error.

If i just burn the iso, everything works, but i get no sound. This applies to 3do and sega cd games i am downloading. So of course i need the cue to burn, so i get music and a proper download.

I am burning with burnatonce, and using a mp3 wav converter for sound conversions. Below is a example of my cue.. do you think it looks right, anything stick out as wrong?


CATALOG 5023843026643
FILE "Mortal Kombat (1994)(Arena)(PAL)(Track 01 of 21)[!].iso" BINARY
TRACK 01 MODE1/2048
INDEX 01 00:00:00
FILE "Mortal Kombat (1994)(Arena)(PAL)(Track 02 of 21)[!].wav" WAVE
TRACK 02 AUDIO
PREGAP 00:02:00
INDEX 01 00:00:00
FILE "Mortal Kombat (1994)(Arena)(PAL)(Track 03 of 21)[!].wav" WAVE
TRACK 03 AUDIO
INDEX 01 00:00:00
FILE "Mortal Kombat (1994)(Arena)(PAL)(Track 04 of 21)[!].wav" WAVE
TRACK 04 AUDIO
INDEX 01 00:00:00
FILE "Mortal Kombat (1994)(Arena)(PAL)(Track 05 of 21)[!].wav" WAVE
_________________________________________________________________

Posted: Wed Sep 17, 2008 7:04 am
by UnholyTancred
Here is a utility which will generate CUE files for you:
http://www.racketboy.com/downloads/sega-cue-maker.htm

You simply pick the folder and it will generate a CUE sheet for all the files in the folder. A pretty nifty tool.

Posted: Wed Sep 17, 2008 5:22 pm
by miketrav
Thanks. I actually use sega cue maker, i then go to burnatonce utility and try to burn the cue. I get a error invalid bin file or something. I am pretty sure the cue is ok, but it says there is a problem

any ideas

thanks

Posted: Wed Sep 17, 2008 7:27 pm
by UnholyTancred
Hmm... well the only thing I can think of is the ISO itself is broken. You are getting these from rom sites and they are crappy ISO + MP3 rips instead of perfect 1:1 rips so there are bound to be errors.

The only thing I can think of is getting the CDMage utility (it's free) and scan the BIN for errors. CDMage could be able to correct them.

Posted: Wed Sep 17, 2008 10:08 pm
by miketrav
thanks i will try... but the roms work perfect in a sega emulator. If the iso was broken wouldn't that effect the play in the emulator?

Posted: Fri Oct 03, 2008 7:03 pm
by WindowsKiller
That's a burnatonce bug. It can't handle long filenames. Simply use a different program to burn the disc.